Request and download your Moyles-related sound or video clips in here
User avatar
By neilt0
#511217
I'm uploading some of the video content from TCMS. Feel free to post requests if there's anything missing. Or indeed, feel free to post fills.

===================================================================

First: 2012-02-20 The Chris Moyles Show Red Button Star Wars Surprise Show.mpg

https://archive.org/details/20120220The ... rpriseShow

This is the video from the red button broadcast of the 2012 birthday show. I believe this is the best quality version we have.
It's insanely self-indulgent, as usual, but a lot of fun.

Code: Select allGeneral
Complete name                            : 2012-02-20 The Chris Moyles Show Red Button Star Wars Surprise Show.mpg
Format                                   : MPEG-PS
File size                                : 1.71 GiB
Duration                                 : 2 h 9 min
Overall bit rate mode                    : Variable
Overall bit rate                         : 1 892 kb/s

Video
ID                                       : 224 (0xE0)
Format                                   : MPEG Video
Format version                           : Version 2
Format profile                           : Main@Main
Format settings, BVOP                    : Yes
Format settings, Matrix                  : Custom
Format settings, GOP                     : Variable
Format settings, picture structure       : Frame
Duration                                 : 2 h 9 min
Bit rate mode                            : Variable
Bit rate                                 : 1 662 kb/s
Maximum bit rate                         : 15.0 Mb/s
Width                                    : 544 pixels
Height                                   : 576 pixels
Display aspect ratio                     : 16:9
Active Format Description                : Full frame 16:9 image
Frame rate                               : 25.000 FPS
Color space                              : YUV
Chroma subsampling                       : 4:2:0
Bit depth                                : 8 bits
Scan type                                : Interlaced
Scan order                               : Top Field First
Compression mode                         : Lossy
Bits/(Pixel*Frame)                       : 0.212
Time code of first frame                 : 00:00:00:00
Time code source                         : Group of pictures header
GOP, Open/Closed                         : Open
GOP, Open/Closed of first frame          : Closed
Stream size                              : 1.51 GiB (88%)

Audio
ID                                       : 192 (0xC0)
Format                                   : MPEG Audio
Format version                           : Version 1
Format profile                           : Layer 2
Mode                                     : Joint stereo
Mode extension                           : Intensity Stereo + MS Stereo
Duration                                 : 2 h 9 min
Bit rate mode                            : Constant
Bit rate                                 : 192 kb/s
Channel(s)                               : 2 channels
Sampling rate                            : 48.0 kHz
Compression mode                         : Lossy
Stream size                              : 178 MiB (10%)


Image

I've just received this message from someone, doe[…]

I wasn't listening for a few months... what happen[…]

Jingle Male Voice etc

Richard Oliver (@RichOliver on Twitter)

YouTube.